<?xml version="1.0" encoding="UTF-8" standalone="no"?>
<!-- Creator: CorelDRAW X7 -->

<svg
   xml:space="preserve"
   width="1260px"
   height="411px"
   version="1.1"
   style="shape-rendering:geometricPrecision; text-rendering:geometricPrecision; image-rendering:optimizeQuality; fill-rule:evenodd; clip-rule:evenodd"
   viewBox="0 0 1260 411"
   id="svg18925"
   sodipodi:docname="Rüstungsständer Rabatt_it.svg"
   inkscape:version="1.2 (dc2aedaf03, 2022-05-15)"
   xmlns:inkscape="http://www.inkscape.org/namespaces/inkscape"
   xmlns:sodipodi="http://sodipodi.sourceforge.net/DTD/sodipodi-0.dtd"
   xmlns:xlink="http://www.w3.org/1999/xlink"
   xmlns="http://www.w3.org/2000/svg"
   xmlns:svg="http://www.w3.org/2000/svg"><sodipodi:namedview
   id="namedview18927"
   pagecolor="#ffffff"
   bordercolor="#000000"
   borderopacity="0.25"
   inkscape:showpageshadow="2"
   inkscape:pageopacity="0.0"
   inkscape:pagecheckerboard="0"
   inkscape:deskcolor="#d1d1d1"
   showgrid="false"
   inkscape:zoom="1.547619"
   inkscape:cx="555.04615"
   inkscape:cy="205.47692"
   inkscape:window-width="3840"
   inkscape:window-height="2054"
   inkscape:window-x="-11"
   inkscape:window-y="-11"
   inkscape:window-maximized="1"
   inkscape:current-layer="Ebene_x0020_1" />
 <defs
   id="defs18884">
  <font
   id="FontID1"
   horiz-adv-x="666"
   font-variant="normal"
   style="fill-rule:nonzero"
   font-weight="400">
	<font-face
   font-family="Arial"
   id="font-face18668">
	</font-face>
   <missing-glyph
   id="missing-glyph18672"><path
     d="M0 0z"
     id="path18670" /></missing-glyph>
   <glyph
   unicode="U"
   horiz-adv-x="722"
   id="glyph18676"><path
     d="M545.993 716.011l94.9978 0 0 -413.511c0,-72.0078 -8.16106,-129.161 -24.3287,-171.511 -16.3221,-42.144 -45.671,-76.6676 -87.9953,-103.159 -42.5044,-26.4913 -98.0099,-39.827 -167.006,-39.827 -66.8331,0 -121.669,11.5079 -164.174,34.6523 -42.6589,23.1702 -72.9861,56.5095 -91.1619,100.353 -18.15,43.8174 -27.3151,103.648 -27.3151,179.492l0 413.511 94.9978 0 0 -413.356c0,-62.1476 5.81829,-108.153 17.3262,-137.477 11.5079,-29.5034 31.1768,-52.3389 59.3415,-68.1719 27.9845,-16.0132 62.3278,-23.994 102.824,-23.994 69.3304,0 118.837,15.833 148.341,47.3187 29.5034,31.6659 44.1521,92.3461 44.1521,182.324l0 413.356z"
     id="path18674" /></glyph>
   <glyph
   unicode="t"
   horiz-adv-x="277"
   id="glyph18680"><path
     d="M257.009 78.4955l11.997 -77.6717c-24.6634,-5.14893 -46.8295,-7.82638 -66.1638,-7.82638 -31.8461,0 -56.5095,4.99446 -74.1704,15.1636 -17.5064,10.1691 -29.8381,23.3504 -36.9951,39.827 -7.18276,16.5023 -10.684,51.1804 -10.684,104.008l0 298.999 -65.0053 0 0 68.0174 65.0053 0 0 128.311 87.9953 52.8538 0 -181.165 88.021 0 0 -68.0174 -88.021 0 0 -303.993c0,-25.1783 1.51894,-41.3459 4.68553,-48.5029 2.98638,-7.15702 7.98085,-12.8208 14.9834,-17.1717 7.00255,-4.17064 17.0172,-6.33319 30.0183,-6.33319 9.65425,0 22.5008,1.18425 38.3338,3.50127z"
     id="path18678" /></glyph>
   <glyph
   unicode="c"
   horiz-adv-x="500"
   id="glyph18684"><path
     d="M404.989 189.996l86.0129 -11.997c-9.49978,-59.1612 -33.4938,-105.321 -72.3425,-138.841 -38.823,-33.4938 -86.6565,-50.1506 -143.166,-50.1506 -70.8236,0 -127.822,23.1702 -170.816,69.4848 -43.1738,46.3404 -64.6706,112.684 -64.6706,199.006 0,55.9946 9.31957,104.832 27.83,146.848 18.4847,41.8093 46.6751,73.3208 84.6742,94.1482 37.8189,21.0076 78.9846,31.5115 123.652,31.5115 56.1749,0 102.335,-14.1596 137.991,-42.6847 35.8366,-28.4993 58.8523,-68.9957 68.8412,-121.309l-84.9831 -13.0011c-8.1868,34.8325 -22.5008,60.9891 -43.354,78.6499 -20.6472,17.5064 -45.671,26.3368 -74.9942,26.3368 -44.3323,0 -80.3234,-15.833 -108.153,-47.4989 -27.6755,-31.8204 -41.5004,-81.8423 -41.5004,-150.503 0,-69.6651 13.31,-120.15 39.9815,-151.662 26.8517,-31.5115 61.6842,-47.3444 104.498,-47.3444 34.6781,0 63.5121,10.5038 86.5021,31.6659 23.1702,21.0076 37.8447,53.5232 43.9976,97.3406z"
     id="path18682" /></glyph>
   <glyph
   unicode="n"
   horiz-adv-x="556"
   id="glyph18688"><path
     d="M66.0093 0l0 519.012 78.9846 0 0 -73.6812c37.9991,56.5095 93.0155,84.6742 164.843,84.6742 31.3313,0 59.9851,-5.66383 86.1674,-16.837 26.1566,-11.1732 45.8255,-26.0021 58.8266,-44.1778 13.0011,-18.15 22.1662,-39.827 27.3408,-64.8251 3.16659,-16.3221 4.84,-44.8215 4.84,-85.498l0 -318.667 -88.021 0 0 315.321c0,35.8366 -3.32106,62.6883 -10.1691,80.3491 -6.82234,17.6608 -18.9996,31.8204 -36.3257,42.5044 -17.3262,10.5038 -37.8189,15.833 -61.1693,15.833 -37.3298,0 -69.4848,-11.8425 -96.6712,-35.6821 -27.1606,-23.6593 -40.6508,-68.8155 -40.6508,-135.159l0 -283.166 -87.9953 0z"
     id="path18686" /></glyph>
   <glyph
   unicode="*"
   horiz-adv-x="389"
   id="glyph18692"><path
     d="M30.9966 584.996l22.3464 68.9957c51.6695,-18.15 88.9993,-33.8285 112.478,-47.1642 -6.15297,58.6721 -9.49978,99.1684 -9.80872,121.18l70.978 0c-0.978297,-32.1808 -4.65978,-72.3425 -11.3277,-120.665 33.4938,16.837 71.8276,32.4898 115.001,46.6493l22.3464 -68.9957c-41.1657,-13.6704 -81.5076,-22.8355 -121.18,-27.3408 19.8234,-17.1459 47.6791,-47.9881 83.6702,-92.1659l-58.3374 -41.5004c-18.8193,25.6674 -41.1657,60.6802 -66.8331,104.832 -24.1742,-45.8255 -45.3364,-80.8125 -63.4863,-104.832l-57.3334 41.5004c37.4842,46.5206 64.4904,77.1825 80.658,92.1659 -41.8351,8.1868 -81.5076,17.3519 -119.172,27.3408z"
     id="path18690" /></glyph>
   <glyph
   unicode="C"
   horiz-adv-x="722"
   id="glyph18696"><path
     d="M587.004 251.165l94.9978 -23.994c-19.8234,-77.8261 -55.5055,-137.013 -106.995,-177.844 -51.5151,-40.831 -114.512,-61.3238 -189.017,-61.3238 -77.0023,0 -139.665,15.6528 -187.988,47.1642 -48.3227,31.3313 -85.0089,76.8221 -110.161,136.344 -25.1783,59.6504 -37.8447,123.497 -37.8447,191.823 0,74.5051 14.1596,139.51 42.6589,194.99 28.4993,55.5055 69.0214,97.6753 121.515,126.509 52.4934,28.834 110.342,43.1738 173.339,43.1738 71.6474,0 131.813,-18.1757 180.496,-54.6817 48.8376,-36.4802 82.8206,-87.6606 102,-153.67l-93.0155 -21.9859c-16.4766,52.0042 -40.6508,90.0033 -72.1623,113.663 -31.4857,23.8396 -71.1583,35.6564 -118.992,35.6564 -54.8361,0 -100.842,-13.1555 -137.657,-39.4923 -36.8406,-26.3368 -62.8427,-61.8387 -77.6717,-106.171 -15.0091,-44.4868 -22.5008,-90.338 -22.5008,-137.502 0,-60.8346 8.83042,-113.997 26.4913,-159.334 17.6608,-45.4908 45.1819,-79.3193 82.5116,-101.82 37.3298,-22.5008 77.6459,-33.674 121.154,-33.674 53.0083,0 97.6753,15.3438 134.336,45.8255 36.6604,30.6876 61.504,76.024 74.5051,136.344z"
     id="path18694" /></glyph>
   <glyph
   unicode="e"
   horiz-adv-x="556"
   id="glyph18700"><path
     d="M419.998 168.01l91.0074 -11.997c-14.1853,-52.8538 -40.6766,-94.0195 -79.3451,-123.188 -38.6685,-29.1687 -87.9953,-43.8174 -148.161,-43.8174 -75.6636,0 -135.674,23.3247 -180.007,69.9997 -44.3323,46.4949 -66.4985,111.989 -66.4985,196.149 0,87.017 22.3464,154.674 67.1678,202.688 44.8472,48.1683 103.004,72.1623 174.497,72.1623 69.1759,0 125.685,-23.5049 169.503,-70.6691 43.8432,-47.1642 65.8291,-113.508 65.8291,-199.006 0,-5.17468 -0.154468,-13.0011 -0.489149,-23.3247l-386.505 0c3.34681,-56.8442 19.3342,-100.507 48.3227,-130.68 28.834,-30.147 65.0053,-45.3364 108.179,-45.3364 32.1551,0 59.6761,8.52148 82.3314,25.513 22.8355,16.9915 40.831,44.1521 54.1668,81.5076zm-288.006 140.978l289.01 0c-3.83595,43.6887 -15.0091,76.3587 -33.1591,98.1902 -27.8557,33.8285 -64.1814,50.82 -108.668,50.82 -40.3419,0 -74.1704,-13.4902 -101.666,-40.4964 -27.3408,-27.0062 -42.5044,-63.1774 -45.5166,-108.514z"
     id="path18698" /></glyph>
   <glyph
   unicode="T"
   horiz-adv-x="610"
   id="glyph18704"><path
     d="M258.991 0l0 632.006 -236.001 0 0 84.0048 567 0 0 -84.0048 -236.001 0 0 -632.006 -94.9978 0z"
     id="path18702" /></glyph>
   <glyph
   unicode="2"
   horiz-adv-x="556"
   id="glyph18708"><path
     d="M502.999 84.0048l0 -84.0048 -474.011 0c-0.643617,21.1621 2.85766,41.5004 10.3494,61.1693 12.1515,32.1551 31.6659,64.0012 58.4919,95.1523 26.8259,31.1768 65.1597,67.1678 115.001,107.999 77.4914,63.8468 130.165,114.358 157.66,151.688 27.6755,37.3298 41.5004,72.6514 41.5004,105.991 0,34.8325 -12.4862,64.1557 -37.4842,88.1755 -24.9981,23.8138 -57.668,35.8366 -97.8297,35.8366 -42.5044,0 -76.5131,-12.6664 -102,-37.9991 -25.513,-25.1783 -38.3338,-60.191 -38.6685,-105.012l-90.0033 9.01063c6.15297,67.3223 29.5034,118.657 69.8195,153.979 40.4964,35.3474 94.6631,53.0083 162.835,53.0083 68.661,0 123.162,-18.9996 163.17,-57.1532 40.1617,-38.1793 60.1653,-85.498 60.1653,-141.853 0,-28.6538 -5.81829,-56.8185 -17.6608,-84.494 -11.6623,-27.83 -31.1768,-56.9987 -58.3374,-87.6606 -27.3408,-30.5074 -72.497,-72.6772 -135.494,-125.994 -52.8281,-44.3323 -86.8368,-74.3506 -101.846,-90.1836 -14.9834,-15.833 -27.3151,-31.6659 -37.1496,-47.6534l351.492 0z"
     id="path18706" /></glyph>
   <glyph
   unicode="s"
   horiz-adv-x="500"
   id="glyph18712"><path
     d="M30.9966 155.009l86.9912 13.9794c4.84,-34.8325 18.5104,-61.4783 40.8568,-80.1431 22.3206,-18.5104 53.6519,-27.8557 93.6591,-27.8557 40.4964,0 70.4889,8.1868 90.1578,24.6891 19.5145,16.3221 29.3489,35.6564 29.3489,57.8225 0,19.8234 -8.85616,35.5019 -26.3368,46.8295 -12.3317,7.82638 -42.35,17.6608 -90.0033,29.8381 -64.3359,16.1676 -108.848,30.1727 -133.847,41.9895 -24.8179,11.997 -43.663,28.3449 -56.4838,49.3525 -12.8466,20.8274 -19.3342,43.9976 -19.3342,69.3304 0,23.1702 5.32915,44.4868 15.833,64.1557 10.6583,19.6689 24.9981,35.991 43.1738,48.9921 13.6447,10.0147 32.3096,18.5104 55.8144,25.513 23.6851,7.00255 48.8376,10.5038 75.8438,10.5038 40.6508,0 76.3329,-5.84404 106.995,-17.6608 30.8421,-11.6881 53.4974,-27.6755 68.1719,-47.6791 14.4942,-20.1581 24.6634,-47.0098 30.1727,-80.658l-86.0129 -11.997c-3.83595,26.9804 -15.1636,48.1683 -33.8285,63.3319 -18.6649,15.1636 -45.0017,22.6553 -79.1648,22.6553 -40.1617,0 -68.9957,-6.66787 -86.1674,-20.0036 -17.1717,-13.3357 -25.8476,-28.9885 -25.8476,-46.8295 0,-11.3277 3.50127,-21.677 10.684,-30.8421 7.15702,-9.31957 18.3302,-17.1459 33.6483,-23.3247 8.85616,-3.32106 34.5236,-10.8385 77.5172,-22.5008 61.9932,-16.5023 105.321,-30.1727 129.985,-40.6508 24.6891,-10.5038 43.9976,-26.0021 58.0027,-46.0057 14.1853,-20.1838 21.1621,-45.1819 21.1621,-75.1744 0,-29.1687 -8.49574,-56.664 -25.6674,-82.5116 -17.1459,-25.8219 -41.8093,-45.8255 -73.9902,-59.9851 -32.3353,-14.1596 -68.8412,-21.1621 -109.492,-21.1621 -67.348,0 -118.837,14.0051 -154.159,41.8351 -35.3474,27.9845 -57.8483,69.3304 -67.6827,124.167z"
     id="path18710" /></glyph>
   <glyph
   unicode="p"
   horiz-adv-x="556"
   id="glyph18716"><path
     d="M66.0093 -199.006l0 718.019 79.9887 0 0 -68.1719c18.8451,26.3368 40.1617,46.1602 64.0012,59.3157 23.6593,13.1813 52.4934,19.8491 86.3219,19.8491 44.3581,0 83.3355,-11.3277 117.19,-34.1632 33.8285,-22.681 59.3157,-54.8361 76.6676,-96.1821 17.1459,-41.5004 25.8219,-86.8368 25.8219,-136.318 0,-52.8538 -9.49978,-100.507 -28.4993,-143.012 -18.9996,-42.3242 -46.6751,-74.8397 -83.0008,-97.495 -36.1713,-22.5008 -74.3248,-33.8285 -114.332,-33.8285 -29.3232,0 -55.66,6.15297 -78.8302,18.4847 -23.3504,12.3317 -42.35,27.83 -57.3334,46.6751l0 -253.173 -87.9953 0zm79.9887 455.346c0,-66.4985 13.4902,-115.671 40.3419,-147.517 27.0062,-31.8204 59.6504,-47.8336 97.9842,-47.8336 39.0032,0 72.3425,16.5023 100.018,49.507 27.83,33.0047 41.6549,84.0048 41.6549,153.181 0,65.9836 -13.4902,115.31 -40.6508,148.161 -27.1864,32.8244 -59.5217,49.1723 -97.1861,49.1723 -37.3298,0 -70.3344,-17.5064 -98.9882,-52.3389 -28.834,-35.0127 -43.1738,-85.6782 -43.1738,-152.331z"
     id="path18714" /></glyph>
   <glyph
   unicode="d"
   horiz-adv-x="556"
   id="glyph18720"><path
     d="M400.999 0l0 65.8291c-32.8244,-51.1546 -81.1729,-76.8221 -144.994,-76.8221 -41.3459,0 -79.3451,11.3277 -113.843,34.1632 -34.6523,22.6553 -61.504,54.5015 -80.658,95.1523 -18.9996,40.8568 -28.4993,87.6863 -28.4993,140.669 0,51.6695 8.65021,98.4991 25.8219,140.669 17.3519,42.0153 43.1738,74.3506 77.6717,96.6712 34.3434,22.5008 73.0119,33.674 115.491,33.674 31.357,0 59.187,-6.66787 83.5157,-19.8491 24.3287,-13.1555 44.1521,-30.4817 59.4959,-51.6438l0 257.498 87.9953 0 0 -716.011 -81.9968 0zm-277.991 258.837c0,-66.344 13.9794,-115.825 42.1698,-148.675 27.9845,-32.8244 61.1436,-49.1723 99.3229,-49.1723 38.4883,0 71.1583,15.6785 98.1644,47.0098 26.8259,31.3313 40.3419,79.1648 40.3419,143.501 0,70.6691 -13.6704,122.673 -41.1657,155.832 -27.3408,33.1591 -61.1693,49.6615 -101.331,49.6615 -39.1834,0 -71.8534,-15.833 -98.1644,-47.6534 -26.1823,-31.8461 -39.3378,-81.9968 -39.3378,-150.503z"
     id="path18718" /></glyph>
   <glyph
   unicode="S"
   horiz-adv-x="666"
   id="glyph18724"><path
     d="M46.0057 230.003l88.9993 8.00659c4.17064,-36.0168 14.0051,-65.5202 29.5034,-88.6646 15.4983,-23.0157 39.4923,-41.6806 71.9821,-56.0204 32.5155,-14.1596 69.1759,-21.3166 109.852,-21.3166 36.1455,0 67.9917,5.32915 95.6672,16.1676 27.6498,10.8128 48.1683,25.6674 61.6585,44.4868 13.4902,18.8451 20.3383,39.3378 20.3383,61.3495 0,22.3206 -6.5134,41.8093 -19.5145,58.6463 -13.0011,16.6825 -34.4979,30.6876 -64.4904,42.1698 -19.1798,7.33723 -61.6585,18.9996 -127.513,34.8325 -65.8291,15.833 -111.835,30.6619 -138.146,44.667 -34.1889,17.9955 -59.5217,40.3419 -76.1785,66.8331 -16.837,26.517 -25.1525,56.3293 -25.1525,89.1795 0,36.3257 10.3236,70.1542 30.8164,101.485 20.4928,31.5115 50.3308,55.351 89.8489,71.6731 39.3121,16.3221 83.1553,24.5089 131.324,24.5089 53.0083,0 99.8378,-8.49574 140.334,-25.6674 40.4964,-17.0172 71.6731,-42.1698 93.5046,-75.5091 21.8315,-33.1591 33.4938,-70.8236 35.1672,-112.839l-91.0074 -7.00255c-4.84,45.1819 -21.3423,79.3451 -49.507,102.335 -28.1647,23.1702 -69.8195,34.6781 -124.836,34.6781 -57.3334,0 -99.1684,-10.5038 -125.325,-31.5115 -26.1566,-20.9819 -39.3378,-46.3147 -39.3378,-75.9982 0,-25.6674 9.34531,-46.8295 27.83,-63.4863 18.3559,-16.5023 65.8549,-33.674 142.831,-51.0002 77.0023,-17.5064 129.856,-32.67 158.51,-45.671 41.5004,-19.1798 72.3425,-43.3283 92.1659,-72.8317 19.8234,-29.3489 29.6579,-63.1774 29.6579,-101.511 0,-38.1536 -10.8128,-73.8357 -32.6442,-107.484 -21.8315,-33.674 -53.0083,-59.8306 -93.8393,-78.5212 -40.831,-18.6649 -86.6823,-27.9845 -137.837,-27.9845 -64.6706,0 -118.837,9.49978 -162.5,28.3191 -43.8432,18.8451 -78.0063,47.19 -102.824,85.1891 -24.9981,37.8189 -37.9991,80.658 -39.3378,128.492z"
     id="path18722" /></glyph>
   <glyph
   unicode=" "
   horiz-adv-x="277"
   id="glyph18726" />
   <glyph
   unicode="."
   horiz-adv-x="277"
   id="glyph18730"><path
     d="M91.0074 0l0 99.9923 99.9923 0 0 -99.9923 -99.9923 0z"
     id="path18728" /></glyph>
   <glyph
   unicode="o"
   horiz-adv-x="556"
   id="glyph18734"><path
     d="M33.0047 259.506c0,95.8216 26.6715,166.825 80.1689,212.986 44.4868,38.3338 98.9882,57.5136 163.17,57.5136 71.1583,0 129.496,-23.3504 174.832,-69.9997 45.1561,-46.4949 67.8372,-111.011 67.8372,-193.162 0,-66.6787 -10.0147,-119.018 -30.0183,-157.171 -20.0036,-38.1793 -49.1723,-67.8372 -87.5061,-88.9993 -38.1536,-21.1621 -79.9887,-31.6659 -125.145,-31.6659 -72.6772,0 -131.349,23.1702 -176.171,69.6651 -44.8472,46.4949 -67.1678,113.482 -67.1678,200.834zm90.0033 -0.180213c0,-66.3183 14.4942,-116.005 43.4827,-148.83 29.1687,-33.0047 65.6746,-49.507 109.852,-49.507 43.663,0 79.9887,16.5023 109.157,49.6872 28.9885,33.1591 43.5085,83.6444 43.5085,151.482 0,64.0012 -14.6745,112.504 -43.8432,145.354 -29.1687,32.9789 -65.4944,49.4812 -108.823,49.4812 -44.1778,0 -80.6838,-16.3221 -109.852,-49.1723 -28.9885,-32.8244 -43.4827,-82.3314 -43.4827,-148.495z"
     id="path18732" /></glyph>
   <glyph
   unicode="l"
   horiz-adv-x="222"
   id="glyph18738"><path
     d="M64.0012 0l0 716.011 87.9953 0 0 -716.011 -87.9953 0z"
     id="path18736" /></glyph>
   <glyph
   unicode="z"
   horiz-adv-x="500"
   id="glyph18742"><path
     d="M19.4887 0l0 71.6731 328.682 379.322c-37.3298,-1.98234 -70.18,-2.98638 -98.4991,-2.98638l-210.179 0 0 71.0038 423.011 0 0 -57.8483 -281.338 -328.991 -53.8321 -61.1693c39.4923,3.32106 76.4874,4.99446 111.011,4.99446l240.146 0 0 -75.9982 -459.002 0z"
     id="path18740" /></glyph>
   <glyph
   unicode="%"
   horiz-adv-x="889"
   id="glyph18746"><path
     d="M58.0027 544.165c0,51.0002 12.8208,94.5087 38.6685,130.165 25.8219,35.8366 63.1517,53.6776 112.17,53.6776 45.0017,0 82.3314,-16.0132 111.835,-48.0138 29.5034,-32.0006 44.3323,-79.1648 44.3323,-141.158 0,-60.5 -15.0091,-107.175 -44.8472,-139.845 -29.8381,-32.67 -66.6529,-48.9921 -110.316,-48.9921 -43.5085,0 -79.6797,16.1676 -108.514,48.3227 -28.834,32.1808 -43.3283,80.8382 -43.3283,145.844zm153.335 122.828c-21.8315,0 -40.0072,-9.31957 -54.5015,-28.1647 -14.4942,-18.8193 -21.8315,-53.3172 -21.8315,-103.494 0,-45.671 7.33723,-77.8261 21.9859,-96.3365 14.6745,-18.6649 32.8502,-28.0102 54.347,-28.0102 22.1662,0 40.4964,9.34531 54.9906,28.1904 14.4942,18.8193 21.677,53.1627 21.677,102.979 0,46.0057 -7.33723,78.341 -22.0117,96.8514 -14.6487,18.6649 -32.8244,27.9845 -54.6559,27.9845zm0.489149 -692.995l390.495 754.01 71.6731 0 -389.491 -754.01 -72.6772 0zm308.164 194.166c0,51.3349 12.8466,94.8433 38.6685,130.5 25.6674,35.5019 63.1774,53.3429 112.35,53.3429 45.0017,0 82.3314,-16.0132 111.835,-48.0138 29.4776,-32.0006 44.1521,-79.1648 44.1521,-141.158 0,-60.5 -14.8289,-107.175 -44.667,-139.845 -29.8381,-32.6442 -66.8331,-48.9921 -110.831,-48.9921 -43.3283,0 -79.3193,16.1676 -108.153,48.5029 -28.834,32.3353 -43.354,80.9927 -43.354,145.663zm153.515 122.828c-22.1662,0 -40.3419,-9.31957 -54.8361,-28.1647 -14.4942,-18.8193 -21.677,-53.3172 -21.677,-103.494 0,-45.3364 7.33723,-77.337 22.0117,-96.1563 14.4942,-18.8451 32.4898,-28.1647 53.9866,-28.1647 22.5008,0 40.831,9.31957 55.351,28.1647 14.4942,18.8193 21.6513,53.1627 21.6513,102.979 0,46.0057 -7.33723,78.341 -21.9859,96.8514 -14.52,18.6649 -32.67,27.9845 -54.5015,27.9845z"
     id="path18744" /></glyph>
   <glyph
   unicode="i"
   horiz-adv-x="222"
   id="glyph18750"><path
     d="M66.0093 615.993l0 100.018 87.9953 0 0 -100.018 -87.9953 0zm0 -615.993l0 519.012 87.9953 0 0 -519.012 -87.9953 0z"
     id="path18748" /></glyph>
  </font>
  <font
   id="FontID0"
   horiz-adv-x="739"
   font-variant="normal"
   style="fill-rule:nonzero"
   font-style="normal"
   font-weight="400">
	<font-face
   font-family="Century Gothic"
   id="font-face18753">
	</font-face>
   <missing-glyph
   id="missing-glyph18757"><path
     d="M0 0z"
     id="path18755" /></missing-glyph>
   <glyph
   unicode="3"
   horiz-adv-x="554"
   id="glyph18761"><path
     d="M133.008 551.008l-74 0c13.3228,59.3228 38.8189,104.992 76.4882,136.992 37.6693,32 82.1732,48 133.512,48 37.3228,0 72.1575,-8.50394 104.488,-25.6693 32.3307,-16.9921 57.3386,-40 75.0079,-68.9921 17.6693,-29.0079 26.5039,-59.1654 26.5039,-90.8346 0,-61.8425 -30.5039,-110.835 -91.5118,-146.835 34.3307,-14 62.6772,-34.5039 84.6772,-61.4961 31.1654,-38.1732 46.8346,-80.6772 46.8346,-127.843 0,-40.6614 -10.6772,-79.4961 -32.1732,-116.504 -21.4961,-36.8189 -50.8346,-65.3228 -87.8268,-85.4961 -37.0079,-20.1575 -78.5039,-30.3307 -124.346,-30.3307 -61.8268,0 -113.323,17.8268 -154.661,53.6693 -41.3386,35.6693 -68.3307,88.1575 -80.9921,157.339l70 0c12.3307,-46.6772 30,-80.5039 53.1654,-101.339 29.6535,-26.5039 67.3228,-39.6693 113.165,-39.6693 52,0 93.8268,15.6693 125.323,46.8346 31.5118,31.1654 47.3386,67.6693 47.3386,109.669 0,28 -7.82677,54.1575 -23.6693,78.5039 -15.6693,24.3307 -36.8346,42.6614 -63.3228,55.1654 -26.5039,12.3307 -67.5118,19.8268 -123.008,22.8346l0 66c32.8346,0 62.8346,5.82677 89.8268,17.3228 27.0079,11.4961 46.6772,26.1732 58.8346,44.1732 12.1732,17.8268 18.3465,37.3228 18.3465,58.5039 0,31.1654 -12.3465,58.1575 -37.1811,80.8189 -24.8189,22.8346 -56.1575,34.1732 -94.1575,34.1732 -30.8346,0 -57.3386,-8.66142 -79.8425,-26.1732 -22.3307,-17.4961 -41.3228,-46.9921 -56.8189,-88.8189z"
     id="path18759" /></glyph>
   <glyph
   unicode="€"
   horiz-adv-x="554"
   id="glyph18765"><path
     d="M96.1686 471.002c24.996,81.8318 71.3326,146.499 138.997,193.831 67.4994,47.5017 145.169,71.1681 232.666,71.1681 21.1672,0 47.1682,-2.66814 78.1675,-7.99996l-18.1656 -68.0019c-18.8326,4.00221 -38.5012,5.99886 -58.6679,5.99886 -65.0003,0 -123.997,-17.3296 -177.333,-51.833 -53.3316,-34.499 -92.3309,-82.1653 -116.833,-143.163l312.999 0 -17.6631 -68.0019 -311.834 0c-2.33462,-14.9994 -3.49971,-30.6658 -3.49971,-46.8347 0,-9.83209 0.831569,-22.4968 2.49916,-38.1633l289.502 0 -17.6675 -67.0014 -257.168 0c22.5013,-63.5017 60.8335,-113.169 115.166,-149.002 54.3366,-35.9976 116.166,-53.9986 185.667,-53.9986 21.1672,0 43.833,2.66814 68.0019,7.99996l0 -68.0019c-20.8337,-3.99776 -45.1671,-5.99886 -73.1692,-5.99886 -91.4993,0 -170.663,23.8354 -237.166,71.3326 -66.4989,47.5017 -111.666,113.334 -135.497,197.669l-72.1687 0 17.0005 67.0014 43.0015 0c-1.33407,18.1656 -2.0011,32.8314 -2.0011,43.9976 0,10.3346 0.667034,23.9999 2.0011,41.0004l-60.002 0 18.001 68.0019 55.1682 0z"
     id="path18763" /></glyph>
   <glyph
   unicode="0"
   horiz-adv-x="554"
   id="glyph18769"><path
     d="M31.9999 358.833c0,94.6655 10.1656,167.835 30.5013,219.499 20.3312,51.833 49.0003,91.0013 86.1675,117.669 36.9982,26.6636 78.4966,39.9998 124.5,39.9998 46.4967,0 88.6666,-13.5008 126.332,-40.3333 37.6652,-26.8326 67.6684,-67.0014 89.4982,-120.667 22.0032,-53.6696 33.0004,-125.834 33.0004,-216.168 0,-90.1652 -10.8326,-162 -32.4979,-215.332 -21.6697,-53.3361 -51.4995,-93.5004 -89.5027,-120.667 -37.9987,-27.1661 -80.3332,-40.8358 -126.83,-40.8358 -46.0031,0 -87.337,13.1673 -124.002,39.5018 -36.8336,26.3345 -65.4983,65.6673 -86.1675,117.834 -20.6647,52.3311 -30.9993,125.331 -30.9993,219.499zm68.0019 -1.33407c0,-81.0002 7.16395,-142.332 21.6653,-183.835 14.5013,-41.4984 35.9976,-72.9958 64.3332,-94.4965 28.3312,-21.5007 58.1654,-32.1688 89.8317,-32.1688 31.8353,0 61.6695,10.4991 89.3337,31.5018 27.6686,20.9982 48.6668,52.5 62.9992,94.501 17.8365,50.997 26.837,112.498 26.837,184.497 0,72.3332 -7.99996,131.335 -23.9999,177.502 -15.8354,45.9987 -38.0032,79.6661 -66.1698,100.998 -27.9977,21.3318 -57.8319,31.9999 -89.0002,31.9999 -31.9999,0 -61.8341,-10.6681 -89.8317,-31.9999 -28.0021,-21.3318 -49.3339,-52.6646 -63.9997,-94.1675 -14.6659,-41.4984 -21.9988,-102.999 -21.9988,-184.333z"
     id="path18767" /></glyph>
   <glyph
   unicode="t"
   horiz-adv-x="338"
   id="glyph18773"><path
     d="M135.001 729.002l68.0025 0 0 -198 107.999 0 0 -58.9993 -107.999 0 0 -472.002 -68.0025 0 0 472.002 -93.0044 0 0 58.9993 93.0044 0 0 198z"
     id="path18771" /></glyph>
   <glyph
   unicode="*"
   horiz-adv-x="424"
   id="glyph18777"><path
     d="M180.001 736.001l62.9992 0 -13.9988 -145.169 118.999 86.003 31.9999 -54.6701 -134.167 -61.167 134.167 -59.9975 -31.9999 -54.9992 -118.999 84.8334 13.9988 -144.835 -62.9992 0 14.9994 144.835 -119.835 -84.8334 -32.1644 54.9992 137 59.9975 -137 61.167 32.1644 54.6701 119.835 -85.834 -14.9994 145z"
     id="path18775" /></glyph>
   <glyph
   unicode="n"
   horiz-adv-x="609"
   id="glyph18781"><path
     d="M76.0019 531.001l67.9947 0 0 -95.1677c27.4998,36.3318 57.8399,63.497 91.0046,81.3322 33.3359,17.8352 69.4965,26.8306 108.669,26.8306 39.8335,0 75.1615,-9.99922 106,-30.1611 30.8303,-20.1696 53.6612,-47.3348 68.3293,-81.5034 14.6681,-33.9974 21.9983,-87.1683 21.9983,-159.334l0 -272.998 -67.9947 0 0 253c0,60.9991 -2.66905,101.836 -7.83597,122.333 -8.33398,35.0012 -23.6635,61.3337 -46.1676,79.1689 -22.4963,17.664 -51.8325,26.496 -88.0009,26.496 -41.4987,0 -78.6631,-13.6643 -111.33,-41.0007 -32.8379,-27.1652 -54.5016,-60.9991 -64.8354,-101.331 -6.49755,-26.3326 -9.83581,-74.3366 -9.83581,-144.168l0 -194.498 -67.9947 0 0 531.001z"
     id="path18779" /></glyph>
   <glyph
   unicode="5"
   horiz-adv-x="554"
   id="glyph18785"><path
     d="M490.999 718l0 -68.0019 -254.834 0 -36.1666 -195.663c31.1683,9.16505 59.3349,13.6653 84.4999,13.6653 65.3338,0 119.332,-21.8343 161.836,-65.6673 42.499,-43.833 63.6662,-99.8328 63.6662,-168.333 0,-47.1682 -10.8326,-90.4988 -32.6669,-129.832 -21.8343,-39.5018 -51.4995,-69.6695 -88.6666,-90.6677 -37.3361,-21.0027 -80.5021,-31.5018 -129.333,-31.5018 -58.3344,0 -107.499,18.001 -147.499,53.8341 -39.9998,35.8331 -63.9997,82.1653 -71.8351,139.166l74.0008 0c5.50081,-27.6641 14.8348,-50.1654 27.9977,-67.3304 13.1673,-17.334 30.8348,-31.1683 52.669,-41.8364 21.9988,-10.4991 44.9981,-15.8309 69.167,-15.8309 47.1638,0 87.6661,17.832 121.498,53.5006 33.8364,35.6641 50.6679,80.1642 50.6679,133.665 0,48.3333 -15.3329,87.5016 -45.8341,117.669 -30.6658,30.1633 -71.3326,45.1627 -122.499,45.1627 -42.3344,0 -93.5004,-12.9983 -153.667,-38.9993l66.0008 357.001 310.998 0z"
     id="path18783" /></glyph>
   <glyph
   unicode="2"
   horiz-adv-x="554"
   id="glyph18789"><path
     d="M116 493.008l-68.9921 0c2,70.9921 25.4961,129.165 70.8189,174.661 45.3386,45.4961 101.339,68.3307 168,68.3307 65.8425,0 119.181,-21.3386 160,-64 40.8346,-42.6614 61.1811,-92.9921 61.1811,-150.992 0,-40.8346 -9.84252,-79.0079 -29.3386,-114.677 -19.4961,-35.6693 -57.3386,-84 -113.496,-144.835l-179.165 -193.496 332 0 0 -68 -487.008 0 273.669 295.496c55.4961,59.8425 91.4961,104 108.331,133.008 16.6614,28.8346 25.0079,59.1654 25.0079,91.1654 0,40.5039 -15.0079,75.3386 -45.0079,104.504 -30,29.1654 -66.6614,43.8268 -110.173,43.8268 -45.6535,0 -83.6535,-15.3386 -114,-46 -30.3307,-30.6614 -47.6535,-73.6693 -51.8268,-128.992z"
     id="path18787" /></glyph>
   <glyph
   unicode="e"
   horiz-adv-x="649"
   id="glyph18793"><path
     d="M524.331 176l57.6693 -30.3307c-18.9921,-36.8346 -40.8346,-66.6614 -65.6693,-89.3386 -24.8346,-22.5039 -52.6614,-39.8268 -83.6693,-51.6693 -31.1654,-11.8268 -66.1575,-17.6693 -105.323,-17.6693 -87.0079,0 -154.835,28.3465 -203.843,85.0079 -48.9921,56.6614 -73.4961,120.661 -73.4961,192 0,67.1654 20.8346,127.165 62.3307,179.669 52.5039,66.8346 123.008,100.331 211.165,100.331 90.8346,0 163.512,-34.3307 217.669,-102.835 38.5039,-48.3307 58.1732,-108.661 58.8346,-181.165l-480 0c1.33858,-61.4961 21.1654,-111.827 59.3386,-150.992 38.3307,-39.3386 85.6693,-59.0079 141.827,-59.0079 27.1654,0 53.6693,4.66142 79.3386,14 25.6693,9.33858 47.4961,21.6693 65.4961,37.1654 18,15.4961 37.4961,40.3307 58.3307,74.8346zm0.677165 143.008c-9.1811,36.4882 -22.5039,65.4961 -40,87.3228 -17.6693,21.8425 -40.8346,39.3386 -69.6693,52.6772 -28.8346,13.3228 -59.1654,20 -90.8346,20 -52.5039,0 -97.4961,-16.6772 -135.165,-50.1732 -27.6693,-24.5039 -48.3307,-61.0079 -62.5039,-109.827l398.173 0z"
     id="path18791" /></glyph>
   <glyph
   unicode="/"
   horiz-adv-x="437"
   id="glyph18797"><path
     d="M408 736l-298.331 -834 -74.6614 0 298.331 834 74.6614 0z"
     id="path18795" /></glyph>
   <glyph
   unicode="s"
   horiz-adv-x="388"
   id="glyph18801"><path
     d="M344 473.339l-44 -45.3386c-36.5039,35.3386 -72.3307,53.0079 -107.165,53.0079 -22.1732,0 -41.1654,-7.33858 -57.0079,-22 -15.8268,-14.5039 -23.8268,-31.6693 -23.8268,-51.1811 0,-17.1654 6.50394,-33.6535 19.4961,-49.1654 13.0079,-16 40.5039,-34.6614 82.1732,-56.1575 50.6614,-26.1732 85.1654,-51.6693 103.496,-76 17.8425,-24.6772 26.8346,-52.5039 26.8346,-83.3386 0,-43.6693 -15.3386,-80.5039 -46,-110.835 -30.6614,-30.1575 -68.9921,-45.3386 -114.992,-45.3386 -30.6772,0 -59.8425,6.67717 -87.8425,20.0157 -27.8268,13.3228 -50.8346,31.6535 -69.1654,55.1654l43.0079 48.8346c34.8189,-39.3386 72,-59.0079 111.165,-59.0079 27.3228,0 50.6614,8.83465 70,26.3307 19.1654,17.4961 28.8346,38.1732 28.8346,61.8425 0,19.4961 -6.34646,36.8346 -19.0079,52.1575 -12.8346,15.0079 -41.4961,33.8425 -86.1732,56.5039 -48,24.6614 -80.6614,48.9921 -97.8268,72.9921 -17.3386,24 -26,51.3386 -26,82.1732 0,40.1732 13.8268,73.4961 41.3386,100.173 27.6693,26.4882 62.4882,39.8268 104.661,39.8268 49.0079,0 98.3307,-23.4961 148,-70.6614z"
     id="path18799" /></glyph>
   <glyph
   unicode=","
   horiz-adv-x="276"
   id="glyph18805"><path
     d="M144.333 132.002l65.6673 -31.3328 -98.8322 -184.671 -48.1688 20.5002 81.3337 195.503z"
     id="path18803" /></glyph>
   <glyph
   unicode="p"
   horiz-adv-x="682"
   id="glyph18809"><path
     d="M76.9979 531.001l68.0025 0 0 -97.6656c27.0018,37.1644 58.0033,64.8276 93.1678,83.1608 35.1646,18.3332 74.3288,27.4998 117.664,27.4998 75.5039,0 140.005,-27.1652 193.666,-81.3322 53.669,-54.167 80.4996,-119.5 80.4996,-195.666 0,-78.0017 -26.6672,-143.997 -79.8304,-198.498 -53.171,-54.3304 -117.337,-81.5034 -192.499,-81.5034 -42.1679,0 -81.0054,8.83978 -116.505,26.3326 -35.4992,17.6718 -67.4967,43.8332 -96.1637,78.6709l0 -286.001 -68.0025 0 0 725.002zm273.839 -52.9998c-59.1705,0 -108.84,-20.5042 -149.171,-61.6684 -40.4949,-41.1641 -60.6645,-92.3352 -60.6645,-153.498 0,-40.1681 8.99541,-76.3365 27.0018,-108.334 17.9986,-32.1687 43.8332,-57.5053 77.3325,-76.3365 33.6627,-18.8312 69.1619,-28.169 106.334,-28.169 36.6664,0 71.1618,9.50121 103.494,28.5036 32.3399,18.8312 58.0033,45.335 77.1691,79.3323 19.1658,34.0051 28.667,69.6677 28.667,106.832 0,37.6702 -9.50121,73.3328 -28.4958,107.003 -19.0024,33.6627 -44.5024,59.8319 -76.6711,78.3285 -31.9975,18.6678 -67.1621,28.0056 -104.996,28.0056z"
     id="path18807" /></glyph>
   <glyph
   unicode="m"
   horiz-adv-x="937"
   id="glyph18813"><path
     d="M76.0019 531.001l67.9947 0 0 -91.8372c23.8347,33.8339 48.1675,58.6725 73.3406,74.3366 34.4954,20.333 70.8272,30.4957 108.832,30.4957 25.8346,0 50.1673,-4.99572 73.3328,-15.1661 23.1655,-9.99922 41.9967,-23.5001 56.6649,-40.1603 14.6681,-16.8392 27.3364,-40.8373 38.1682,-72.1734 22.6675,41.6699 51.1633,73.3328 85.1685,95.0043 34.1608,21.6637 70.8272,32.4955 110.163,32.4955 36.6664,0 69.1697,-9.33001 97.1675,-27.8266 28.169,-18.5044 49.0001,-44.339 62.6644,-77.5037 13.6721,-33.1647 20.5042,-82.834 20.5042,-149.163l0 -289.503 -70.0023 0 0 289.666c0,56.9995 -3.99969,96.0003 -12.1703,117.337 -8.16279,21.3291 -21.9983,38.4951 -41.6621,51.4979 -19.6638,12.9951 -43.0005,19.5004 -70.3369,19.5004 -32.9935,0 -63.3336,-9.83581 -90.6622,-29.3362 -27.4998,-19.5004 -47.4982,-45.4984 -60.1665,-78.0017 -12.6683,-32.4955 -19.0024,-86.8337 -19.0024,-162.828l0 -207.836 -68.0025 0 0 271.668c0,64.0028 -3.99969,107.501 -11.9991,130.496 -7.99938,23.0021 -21.8349,41.3353 -41.6621,55.1708 -20.0062,13.8355 -43.5063,20.6677 -70.835,20.6677 -31.6707,0 -61.1703,-9.50121 -88.6701,-28.5036 -27.4998,-18.9946 -47.8329,-44.6658 -60.9991,-76.8345 -13.1663,-32.1609 -19.835,-81.4956 -19.835,-147.833l0 -224.831 -67.9947 0 0 531.001z"
     id="path18811" /></glyph>
   <glyph
   unicode="7"
   horiz-adv-x="554"
   id="glyph18817"><path
     d="M72 718l455.008 0 -384 -736 -60 30.6614 332.661 637.339 -343.669 0 0 68z"
     id="path18815" /></glyph>
   <glyph
   unicode="1"
   horiz-adv-x="554"
   id="glyph18821"><path
     d="M185 718l141.998 0 0 -718 -71.9997 0 0 648.002 -113 0 43.0015 69.9986z"
     id="path18819" /></glyph>
   <glyph
   unicode="u"
   horiz-adv-x="607"
   id="glyph18825"><path
     d="M66.9987 531.001l68.0025 0 0 -247.833c0,-60.5011 3.33048,-102 9.83581,-124.839 9.66462,-32.4955 28.4958,-58.1667 55.9956,-76.9979 27.4998,-18.8312 60.5011,-28.3324 98.6694,-28.3324 38.1682,0 70.5004,9.1666 97.1675,27.4998 26.496,18.4966 45.0004,42.5025 54.9996,72.5002 6.83215,20.4965 10.3338,63.8316 10.3338,130.169l0 247.833 69.9946 0 0 -260.338c0,-73.1616 -8.49739,-128.161 -25.6634,-165.162 -17.0026,-37.1644 -42.8371,-66.1661 -77.1691,-87.0049 -34.332,-20.9945 -77.3325,-31.4995 -129.165,-31.4995 -51.8325,0 -94.9965,10.505 -129.663,31.4995 -34.6666,20.8388 -60.6723,50.1673 -77.6671,87.6663 -17.166,37.5068 -25.6712,94.0005 -25.6712,169.341l0 255.498z"
     id="path18823" /></glyph>
   <glyph
   unicode=" "
   horiz-adv-x="276"
   id="glyph18827" />
   <glyph
   unicode="d"
   horiz-adv-x="684"
   id="glyph18831"><path
     d="M606 735.997l0 -735.997 -68.0025 0 0 91.3314c-28.667,-34.83 -60.6645,-60.9991 -96.3271,-78.3285 -35.507,-17.3372 -74.5,-26.0058 -116.668,-26.0058 -75.0058,0 -139.172,27.173 -192.335,81.5034 -53.1632,54.5016 -79.667,120.496 -79.667,198.498 0,76.1653 26.8306,141.499 80.4996,195.666 53.4978,54.167 117.999,81.3322 193.502,81.3322 43.4986,0 82.834,-9.33001 118.162,-27.8266 35.1724,-18.5044 66.1661,-46.3388 92.8332,-83.5032l0 303.33 68.0025 0zm-273.667 -257.995c-37.997,0 -73.1616,-9.33779 -105.167,-28.0056 -32.1687,-18.4966 -57.6687,-44.6658 -76.6633,-78.3285 -19.0024,-33.6705 -28.5036,-69.3331 -28.5036,-107.003 0,-37.1644 9.50121,-72.827 28.667,-106.832 19.1658,-33.9974 44.837,-60.5011 77.1691,-79.3323 32.3321,-19.0024 66.9987,-28.5036 104,-28.5036 37.1644,0 72.6636,9.33779 106,28.169 33.4993,18.8312 59.1627,44.1678 77.1691,76.3365 17.9986,31.9975 26.994,68.1659 26.994,108.334 0,61.1626 -20.1619,112.334 -60.6645,153.498 -40.3315,41.1641 -90.0008,61.6684 -149,61.6684z"
     id="path18829" /></glyph>
   <glyph
   unicode="S"
   horiz-adv-x="498"
   id="glyph18835"><path
     d="M13.0029 134.332l60.9991 36.6664c43.0005,-79.3323 92.662,-118.995 149,-118.995 24.1615,0 46.829,5.66493 67.9947,16.8314 21.1734,11.1664 37.3356,26.3326 48.3387,45.1638 11.1664,18.8312 16.668,38.8374 16.668,60.0031 0,23.9981 -8.17057,47.4982 -24.5039,70.6638 -22.4963,31.8341 -63.497,70.3369 -123.337,115.166 -59.9953,45.335 -97.3309,78.0017 -111.999,98.1713 -25.5,33.8339 -38.1605,70.5004 -38.1605,109.828 0,31.1649 7.49358,59.6685 22.4963,85.3319 15.0027,25.6712 36.1684,45.833 63.497,60.6723 27.3364,14.8315 56.836,22.1617 88.8336,22.1617 34.0051,0 65.8392,-8.33398 95.3389,-25.1654 29.4996,-16.668 60.828,-47.4982 93.8293,-92.3352l-58.6647 -44.4946c-27.1652,35.8338 -50.3307,59.4973 -69.4965,70.835 -19.1736,11.4933 -40.0047,17.166 -62.501,17.166 -29.1728,0 -52.9998,-8.83978 -71.5042,-26.3326 -18.4966,-17.6718 -27.8344,-39.172 -27.8344,-65.0066 0,-15.5007 3.33826,-30.6669 9.83581,-45.3272 6.49755,-14.6681 18.4966,-30.5035 35.8338,-47.8329 9.33001,-9.00319 40.5027,-33.0013 93.1678,-71.6676 62.3298,-46.0042 105.167,-86.8337 128.332,-122.504 23.1655,-35.8338 34.83,-71.831 34.83,-107.999 0,-51.996 -19.8273,-97.3309 -59.3339,-135.663 -39.6623,-38.5028 -87.8297,-57.6687 -144.495,-57.6687 -43.6698,0 -83.332,11.6645 -118.839,35.0012 -35.4992,23.3289 -68.3293,62.501 -98.327,117.329z"
     id="path18833" /></glyph>
   <glyph
   unicode="r"
   horiz-adv-x="300"
   id="glyph18839"><path
     d="M49.9961 531.001l70.0023 0 0 -77.6671c20.8311,30.6669 42.8371,53.3344 66.0026,68.3293 23.1655,14.8393 47.3348,22.3329 72.329,22.3329 19.0024,0 39.172,-5.99953 60.6723,-17.9986l-35.6704 -57.3341c-14.3335,6.17073 -26.3326,9.33779 -36.1684,9.33779 -22.8309,0 -44.8292,-9.33779 -65.9949,-28.0056 -21.1657,-18.66 -37.3356,-47.8329 -48.5021,-87.1605 -8.49739,-30.1689 -12.6683,-91.3392 -12.6683,-183.332l0 -179.504 -70.0023 0 0 531.001z"
     id="path18837" /></glyph>
   <glyph
   unicode="a"
   horiz-adv-x="683"
   id="glyph18843"><path
     d="M605.004 531.001l0 -531.001 -68.0025 0 0 91.3314c-28.667,-34.83 -60.6645,-60.9991 -96.3349,-78.3285 -35.4992,-17.3372 -74.5,-26.0058 -116.668,-26.0058 -74.9981,0 -139.164,27.173 -192.335,81.5034 -53.1632,54.5016 -79.6592,120.496 -79.6592,198.498 0,76.1653 26.8306,141.499 80.4996,195.666 53.4978,54.167 117.999,81.3322 193.495,81.3322 43.4986,0 82.834,-9.1666 118.17,-27.4998 35.1646,-18.3332 66.1661,-45.9964 92.8332,-83.1608l0 97.6656 68.0025 0zm-273.667 -52.9998c-38.0048,0 -73.1694,-9.33779 -105.167,-28.0056 -32.1687,-18.4966 -57.6687,-44.6658 -76.6711,-78.3285 -18.9946,-33.6705 -28.4958,-69.3331 -28.4958,-107.003 0,-37.1644 9.50121,-72.827 28.667,-106.832 19.1658,-33.9974 44.8292,-60.5011 77.1613,-79.3323 32.3399,-19.0024 67.0065,-28.5036 104,-28.5036 37.1722,0 72.6714,9.33779 106,28.169 33.5071,18.8312 59.1705,44.1678 77.1691,76.3365 17.9986,31.9975 27.0018,68.1659 27.0018,108.334 0,61.1626 -20.1696,112.334 -60.6645,153.498 -40.3393,41.1641 -90.0008,61.6684 -149,61.6684z"
     id="path18841" /></glyph>
   <glyph
   unicode="o"
   horiz-adv-x="654"
   id="glyph18847"><path
     d="M327.834 543.997c81.8302,0 149.833,-29.4996 203.665,-88.6624 49.0001,-53.8324 73.504,-117.664 73.504,-191.331 0,-74.002 -25.8346,-138.666 -77.6671,-194 -51.6691,-55.3342 -118.333,-83.0052 -199.502,-83.0052 -81.6668,0 -148.502,27.671 -200.171,83.0052 -51.8325,55.3342 -77.6671,119.998 -77.6671,194 0,73.3328 24.5039,137.001 73.504,190.833 53.8324,59.4973 121.998,89.1604 204.334,89.1604zm-0.334604 -66.9987c-56.836,0 -105.502,-20.8311 -146.331,-62.6644 -40.8373,-41.8333 -61.1703,-92.4986 -61.1703,-151.833 0,-38.1682 9.33779,-73.8308 27.8344,-107.003 18.6678,-33.0013 43.8332,-58.5013 75.5039,-76.4999 31.4995,-17.9986 66.3295,-26.994 104.163,-26.994 37.8336,0 72.6636,8.99541 104.163,26.994 31.6707,17.9986 56.836,43.4986 75.5039,76.4999 18.4966,33.1725 27.8344,68.8351 27.8344,107.003 0,59.3339 -20.5042,109.999 -61.5049,151.833 -40.8295,41.8333 -89.495,62.6644 -145.996,62.6644z"
     id="path18845" /></glyph>
   <glyph
   unicode="l"
   horiz-adv-x="200"
   id="glyph18851"><path
     d="M66 736l68 0 0 -736 -68 0 0 736z"
     id="path18849" /></glyph>
   <glyph
   unicode="6"
   horiz-adv-x="554"
   id="glyph18855"><path
     d="M367.008 736l59.1654 -38.3307 -194.677 -293.496c26,8.48819 50.5039,12.8346 73.3386,12.8346 57.1654,0 105.669,-20.6772 145.496,-61.8425 39.8425,-41.1654 59.6693,-91.8268 59.6693,-152 0,-41.3386 -9.66929,-78.6614 -28.8346,-112 -19.3386,-33.3386 -46.5039,-60 -81.8268,-79.6693 -35.5118,-19.6693 -73.5118,-29.4961 -114.331,-29.4961 -39.3386,0 -76,9.49606 -109.669,28.5039 -33.8425,19.1654 -60.1732,45.8268 -79.5118,80.3307 -19.1654,34.5039 -28.8189,71.4961 -28.8189,110.835 0,29.3386 6,60.1575 17.8268,92.5039 12,32.4882 33.1654,71.3228 63.8268,116.992l218.346 324.835zm-79.1811 -382c-41.8268,0 -77.3228,-14.6614 -106.661,-44.1732 -29.4961,-29.4961 -44.1575,-65.1654 -44.1575,-106.992 0,-41.6693 14.6614,-77.1654 44.1575,-106.661 29.4961,-29.5118 65.1654,-44.1732 106.835,-44.1732 41.6693,0 77.3386,14.6614 106.835,44.1732 29.4961,29.4961 44.1732,64.9921 44.1732,106.661 0,41.8268 -14.8346,77.4961 -44.3465,106.992 -29.4961,29.5118 -65.1654,44.1732 -106.835,44.1732z"
     id="path18853" /></glyph>
   <glyph
   unicode="%"
   horiz-adv-x="774"
   id="glyph18859"><path
     d="M675.008 750l-525.008 -799.008 -64.5039 0 478.173 727.843c-57.0079,-13.8268 -126.504,-20.8346 -208.504,-20.8346l-26.5039 0.503937c20.1732,-28 30.3465,-57.6693 30.3465,-89.0079 0,-44.6614 -15.5118,-84.4882 -46.5039,-119.669 -31.0079,-35.1654 -72.1732,-52.8189 -123.496,-52.8189 -47.0079,0 -86.6772,16.3307 -118.835,49.1654 -32.1732,32.6614 -48.1732,72.4882 -48.1732,119.323 0,31.3386 7.33858,59.6693 22,85.3386 14.6614,25.4961 35.4961,46.1732 62.6614,61.6693 27.0079,15.6693 54.6772,23.4961 83.1654,23.4961 12,0 31.8425,-2.83465 59.6693,-8.66142 42.3307,-8.83465 88.3307,-13.3386 137.843,-13.3386 36.4882,0 70.9921,2.33071 103.496,7.00787 32.5039,4.8189 74.6614,14.3307 126.504,28.9921l57.6693 0zm-484.677 -76c-29.4961,0 -54.5039,-10.5039 -75.3228,-31.4961 -20.6772,-20.8346 -31.0079,-46.1732 -31.0079,-75.6693 0,-29.6693 10.3307,-54.8346 31.0079,-75.6693 20.8189,-20.8346 45.8268,-31.1654 75.3228,-31.1654 29.3386,0 54.5039,10.3307 75.3386,31.1654 20.8346,20.8346 31.3386,46 31.3386,75.6693 0,29.4961 -10.5039,54.8346 -31.3386,75.6693 -20.8346,20.9921 -46,31.4961 -75.3386,31.4961zm394.173 -356.992c46.5039,0 86.1575,-16.5039 118.992,-49.5118 33.0079,-33.1654 49.5118,-72.9921 49.5118,-119.496 0,-46.5039 -16.5039,-86.3307 -49.5118,-119.496 -32.8346,-33.0079 -72.4882,-49.5118 -118.992,-49.5118 -46.5039,0 -86.1732,16.5039 -119.008,49.5118 -32.9921,33.1654 -49.4961,72.9921 -49.4961,119.496 0,46.5039 16.5039,86.3307 49.4961,119.496 32.8346,33.0079 72.5039,49.5118 119.008,49.5118zm-0.173228 -62c-29.4961,0 -54.5039,-10.5039 -75.3228,-31.3386 -20.6772,-20.8346 -31.0079,-46 -31.0079,-75.6693 0,-29.6693 10.3307,-54.8346 31.0079,-75.6693 20.8189,-20.8346 45.8268,-31.3228 75.3228,-31.3228 29.3386,0 54.5039,10.4882 75.3386,31.3228 20.8346,20.8346 31.3386,46 31.3386,75.6693 0,29.6693 -10.5039,54.8346 -31.3386,75.6693 -20.8346,20.8346 -46,31.3386 -75.3386,31.3386z"
     id="path18857" /></glyph>
   <glyph
   unicode="i"
   horiz-adv-x="200"
   id="glyph18863"><path
     d="M99.8268 749.008c15.5118,0 28.6772,-5.51181 39.6693,-16.6772 11.0079,-10.9921 16.5039,-24.5039 16.5039,-40 0,-15.3228 -5.49606,-28.6614 -16.5039,-39.6693 -10.9921,-11.1654 -24.1575,-16.6614 -39.6693,-16.6614 -15.3228,0 -28.3307,5.49606 -39.3228,16.6614 -11.0079,11.0079 -16.5039,24.3465 -16.5039,39.6693 0,15.4961 5.49606,29.0079 16.5039,40 10.9921,11.1654 24,16.6772 39.3228,16.6772zm-33.8268 -218l68 0 0 -531.008 -68 0 0 531.008z"
     id="path18861" /></glyph>
   <glyph
   unicode="z"
   horiz-adv-x="424"
   id="glyph18867"><path
     d="M32 531.008l391.008 0 -301.008 -470 291.008 0 0 -61.0079 -409.008 0 302.331 472 -274.331 0 0 59.0079z"
     id="path18865" /></glyph>
  </font>
</defs>
</svg>
